福利社区

 找回密码
 立即注册
搜索
查看: 856|回复: 0

杀回归家路 Redirected.2014.720p.BluRay.x264.DTS-RARBG 4.81GB

[复制链接]

2912

主题

3345

帖子

6万

积分

管理员

Rank: 9Rank: 9Rank: 9

积分
65161

论坛元老

发表于 2015-1-22 09:12:59 | 显示全部楼层 |阅读模式
e3d8a4a4654224aa02be69562605bf20.jpg
◎译  名 杀回归家路
◎片  名 Redirected
◎年  代 2014
◎国  家 英国/立陶宛
◎类  别 动作/喜剧/惊悚
◎语  言 英语
◎字  幕 N/A
◎IMDB评分  7.8/10 from 15,607 users
◎片  长 1h 39mn
◎导  演 艾米利斯·威尔韦斯 Emilis Welyvis
◎主  演 维尼·琼斯 Vinnie Jones ...Golden Pole
      李·尼古拉斯·哈里斯 Lee Nicholas Harris ...Drunk Scottish Football Fan#1
      Vytas Sapranaukas ...Algis (as Vytas Sapranaukas)
      斯科特·威廉斯 Scot Williams ...Michael
      Gil Darnell ...Johnny
      Mindaugas Papinigis ...Vova
      亚瑟·斯莫扬诺夫 Artur Smolyanino ...Doncius
      Oliver Jackson ...Tim
      Andrius Paulavicius ...Yelling driver
      Donatas Simukauskas  ...Police officer #1
      Sakalas Uzdavinys ...Paramedic
      Jack Cooper ...Poker Player#1
      Karina Stungyte ...Ruta
      Daniel-John Williams ...Golden Pole's Hitman 'Barman'
      Anthony Strachan ...Ben

◎简  介 

  笨贼John, Ben, Tim加上倒霉催的好友Michael抢劫了黑道老大Golden Pole 一笔钱,然后准备跑路。未料突遇冰岛火山喷发,飞机迫降立陶宛。原本以为可以在立陶宛逍遥一把。谁曾想Golden Pole已经尾随而来,而比Golden Pole更大的危险还在等着他们……
  • Video
  • ID                                       : 1
  • Format                                   : AVC
  • Format/Info                              : Advanced Video Codec
  • Format profile                           : High@L4.1
  • Format settings, CABAC                   : Yes
  • Format settings, ReFrames                : 4 frames
  • Codec ID                                 : V_MPEG4/ISO/AVC
  • Duration                                 : 1h 39mn
  • Bit rate                                 : 5 500 Kbps
  • Width                                    : 1 280 pixels
  • Height                                   : 538 pixels
  • Display aspect ratio                     : 2.40:1
  • Frame rate mode                          : Constant
  • Frame rate                               : 23.976 fps
  • Color space                              : YUV
  • Chroma subsampling                       : 4:2:0
  • Bit depth                                : 8 bits
  • Scan type                                : Progressive
  • Bits/(Pixel*Frame)                       : 0.333
  • Stream size                              : 3.67 GiB (76%)
  • Title                                    : Redirected.2014.720p.BluRay.x264.DTS-RARBG
  • Writing library                          : x264 core 142 r2479 dd79a61
  • Encoding settings                        : cabac=1 / ref=4 / deblock=1:-1:-1 / analyse=0x3:0x113 / me=umh / subme=8 / psy=1 / psy_rd=1.00:0.15 / mixed_ref=1 / me_range=16 / chroma_me=1 / trellis=1 / 8x8dct=1 / cqm=0 / deadzone=21,11 / fast_pskip=1 / chroma_qp_offset=-3 / threads=12 / lookahead_threads=2 / sliced_threads=0 / nr=0 / decimate=1 / interlaced=0 / bluray_compat=0 / constrained_intra=0 / bframes=3 / b_pyramid=2 / b_adapt=2 / b_bias=0 / direct=3 / weightb=1 / open_gop=0 / weightp=2 / keyint=240 / keyint_min=24 / scenecut=40 / intra_refresh=0 / rc_lookahead=50 / rc=abr / mbtree=1 / bitrate=5500 / ratetol=1.0 / qcomp=0.60 / qpmin=0 / qpmax=69 / qpstep=4 / vbv_maxrate=62500 / vbv_bufsize=78125 / nal_hrd=none / filler=0 / ip_ratio=1.40 / aq=1:1.00
  • Default                                  : Yes
  • Forced                                   : No
  • Color primaries                          : BT.709
  • Transfer characteristics                 : BT.709
  • Matrix coefficients                      : BT.709
  • Color range                              : Limited
  • Audio
  • ID                                       : 2
  • Format                                   : DTS
  • Format/Info                              : Digital Theater Systems
  • Mode                                     : 16
  • Format settings, Endianness              : Big
  • Codec ID                                 : A_DTS
  • Duration                                 : 1h 39mn
  • Bit rate mode                            : Constant
  • Bit rate                                 : 1 509 Kbps
  • Channel(s)                               : 6 channels
  • Channel positions                        : Front: L C R, Side: L R, LFE
  • Sampling rate                            : 48.0 KHz
  • Bit depth                                : 16 bits
  • Compression mode                         : Lossy
  • Stream size                              : 1.05 GiB (22%)
  • Title                                    : Redirected.2014.720p.BluRay.x264.DTS-RARBG
  • Language                                 : English
  • Default                                  : Yes
  • Forced                                   : No


电影BT种子下载: Redirected.2014.720p.BluRay.x264.DTS-RARBG.torrent (12.84 KB, 下载次数: 1892)



上一篇:第四公民[爱德华.斯诺登] Citizenfour.2014 3.38GB
下一篇:工作女郎/上班女郎 Walking.Girl.2014 1.7GB
回复

使用道具 举报

点击按钮快速添加回复内容: 给力 高兴 感谢 路过 加油 生气 回帖 呵呵 感动 感恩
您需要登录后才可以回帖 登录 | 立即注册

本版积分规则

广告合作|友情链接|寻求帮助|提出建议|福利社区  

Copyright © 2009-2016 fulibbs.com  All Rights Reserved.

快速回复 返回顶部 返回列表